第三楼字幕网

查看: 258|回复: 25

[玻璃先生]Glass.2019.1080p.BluRay.x264.DTS-MT[中英字幕]

[复制链接]

22

主题

201

帖子

1290

积分

金牌会员

Rank: 6Rank: 6

积分
1290
字幕币
1089
发表于 2019-4-11 19:32 | 显示全部楼层 |阅读模式
电影海报
玻璃先生.jpg
影片信息
◎译  名 玻璃先生/不死劫2/分裂2/异能仨(港)/异裂(台)
◎片  名 Glass
◎年  代 2019
◎产  地 美国
◎类  别 悬疑/惊悚/犯罪
◎语  言 英语
◎上映日期 2019-01-18(美国)
◎IMDb评分 7.0/10 from 75540 users
◎IMDb链接 http://www.imdb.com/title/tt6823368
◎豆瓣评分 6.3/10 from 3289 users
◎豆瓣链接 https://movie.douban.com/subject/27031237/
◎片  长 129分钟
◎导  演 M·奈特·沙马兰 M. Night Shyamalan
◎编  剧 M·奈特·沙马兰 M. Night Shyamalan
◎主  演 詹姆斯·麦卡沃伊 James McAvoy
      布鲁斯·威利斯 Bruce Willis
      塞缪尔·杰克逊 Samuel L. Jackson
      安雅·泰勒-乔伊 Anya Taylor-Joy
      莎拉·保罗森 Sarah Paulson
      斯宾塞·崔特·克拉克 Spencer Treat Clark
      查莱宁·伍德拉德 Charlayne Woodard
      卢克·科比  Luke Kirby
      亚当·大卫·汤普森 Adam David Thompson
      M·奈特·沙马兰 M. Night Shyamalan
      戴安娜·希维斯 Diana Silvers
      克里·锡安 Kyli Zion
      罗素·普斯勒 Russell Posner
      罗丝玛丽·霍华德 Rosemary Howard
      莱斯利·史蒂芬森 Leslie Stefanson
      尤基·华盛顿 Ukee Washington
      布赖恩·安东尼·威尔逊 Brian Anthony Wilson
      托拜厄斯·西格尔 Tobias Segal
      蒂姆·杜奎特 Tim Duquette
      朱塞佩·阿迪松 Giuseppe Ardizzone
      大卫·克尼里安 David Kneeream
      布莱恩·多纳休 Brian Donahue
      奥罗拉·卡琳 Aurora Karine
      迈克尔·J·克雷米 Michael J. Kraycik
      迈克尔·J·莱昂斯 Michael J. Lyons

内容简介
  故事讲述玻璃先生(塞缪尔·杰克逊 饰)发现大卫·杜恩(布鲁斯·威利斯 饰)正在追捕凯文·温德尔·克鲁伯(詹姆斯·麦卡沃伊 饰)的人格分裂化身之一“野兽”,而他手中则掌握对二者来说至关重要的秘密......
截图预览
1.jpg 2.jpg
3.jpg 4.jpg
参数信息
  1. Video
  2. ID : 1
  3. Format : AVC
  4. Format/Info : Advanced Video Codec
  5. Format profile : [email][email protected][/email]
  6. Format settings : CABAC / 5 Ref Frames
  7. Format settings, CABAC : Yes
  8. Format settings, ReFrames : 5 frames
  9. Codec ID : V_MPEG4/ISO/AVC
  10. Duration : 2 h 9 min
  11. Bit rate : 13.3 Mb/s
  12. Width : 1 920 pixels
  13. Height : 804 pixels
  14. Display aspect ratio : 2.40:1
  15. Frame rate mode : Constant
  16. Frame rate : 23.976 (24000/1001) FPS
  17. Color space : YUV
  18. Chroma subsampling : 4:2:0
  19. Bit depth : 8 bits
  20. Scan type : Progressive
  21. Bits/(Pixel*Frame) : 0.360
  22. Stream size : 12.0 GiB (90%)
  23. Writing library : x264 core 157 r2938 2b00a84 [email protected] Mod
  24. Encoding settings : cabac=1 / ref=5 / deblock=1:-3:-3 / analyse=0x3:0x133 / me=umh / subme=10 / psy=1 / psy_rd=1.05:0.00 / mixed_ref=1 / me_range=32 / chroma_me=1 / trellis=2 / 8x8dct=1 / cqm=0 / deadzone=21,11 / fast_pskip=0 / chroma_qp_offset=-2 / threads=12 / lookahead_threads=2 / sliced_threads=0 / nr=0 / decimate=0 / interlaced=0 / bluray_compat=0 / constrained_intra=0 / bframes=8 / b_pyramid=2 / b_adapt=2 / b_bias=0 / direct=3 / weightb=1 / open_gop=0 / weightp=2 / keyint=250 / keyint_min=24 / scenecut=40 / intra_refresh=0 / rc_lookahead=250 / rc=crf / mbtree=0 / crf=15.5 / qcomp=0.60 / qpmin=0 / qpmax=69 / qpstep=4 / vbv_maxrate=62500 / vbv_bufsize=78125 / crf_max=0.0 / nal_hrd=none / filler=0 / ip_ratio=1.30 / pb_ratio=1.20 / aq=3:0.80
  25. Language : English
  26. Default : Yes
  27. Forced : No
  28. Color range : Limited
  29. Color primaries : BT.709
  30. Matrix coefficients : BT.709

  31. Audio
  32. ID : 2
  33. Format : DTS
  34. Format/Info : Digital Theater Systems
  35. Codec ID : A_DTS
  36. Duration : 2 h 9 min
  37. Bit rate mode : Constant
  38. Bit rate : 1 509 kb/s
  39. Channel(s) : 6 channels
  40. Channel layout : C L R Ls Rs LFE
  41. Sampling rate : 48.0 kHz
  42. Frame rate : 93.750 FPS (512 SPF)
  43. Bit depth : 24 bits
  44. Compression mode : Lossy
  45. Stream size : 1.36 GiB (10%)
  46. Language : English
  47. Default : Yes
  48. Forced : No

  49. Text #1
  50. ID : 3
  51. Format : UTF-8
  52. Codec ID : S_TEXT/UTF8
  53. Codec ID/Info : UTF-8 Plain Text
  54. Duration : 2 h 1 min
  55. Bit rate : 43 b/s
  56. Count of elements : 1197
  57. Stream size : 38.9 KiB (0%)
  58. Language : English
  59. Default : Yes
  60. Forced : No

  61. Text #2
  62. ID : 4
  63. Format : UTF-8
  64. Codec ID : S_TEXT/UTF8
  65. Codec ID/Info : UTF-8 Plain Text
  66. Duration : 2 h 2 min
  67. Bit rate : 50 b/s
  68. Count of elements : 1561
  69. Stream size : 45.7 KiB (0%)
  70. Title : SDH
  71. Language : English
  72. Default : No
  73. Forced : No

  74. Menu
  75. 00:00:00.000 : en:Chapter 01
  76. 00:04:08.457 : en:Chapter 02
  77. 00:09:36.367 : en:Chapter 03
  78. 00:14:30.078 : en:Chapter 04
  79. 00:19:49.897 : en:Chapter 05
  80. 00:24:41.063 : en:Chapter 06
  81. 00:29:45.826 : en:Chapter 07
  82. 00:35:00.598 : en:Chapter 08
  83. 00:39:07.595 : en:Chapter 09
  84. 00:47:28.220 : en:Chapter 10
  85. 00:57:16.224 : en:Chapter 11
  86. 01:02:55.271 : en:Chapter 12
  87. 01:09:26.829 : en:Chapter 13
  88. 01:14:30.299 : en:Chapter 14
  89. 01:21:43.774 : en:Chapter 15
  90. 01:30:10.530 : en:Chapter 16
  91. 01:38:15.515 : en:Chapter 17
  92. 01:44:08.742 : en:Chapter 18
  93. 01:54:07.215 : en:Chapter 19
  94. 02:03:00.290 : en:Chapter 20
复制代码
下载地址

游客,如果您要查看本帖隐藏内容请回复


第三楼字幕网www.disanlou.org共享交流平台,字幕音轨仅作学习交流使用,版权归片方所有,禁止用于商业用途
第三楼字幕网www.disanlou.net致力为大家打造一个优质电影字幕下载交流平台,双语字幕下载、中文字幕下载、电影字幕下载尽在第三楼字幕网
回复

使用道具 举报

0

主题

404

帖子

3981

积分

论坛元老

Rank: 8Rank: 8

积分
3981
字幕币
3577
发表于 2019-4-11 20:36 | 显示全部楼层
致力为大家打造一个优质电影字幕下载交流平台
第三楼字幕网www.disanlou.net致力为大家打造一个优质电影字幕下载交流平台,双语字幕下载、中文字幕下载、电影字幕下载尽在第三楼字幕网
回复 支持 反对

使用道具 举报

0

主题

151

帖子

171

积分

注册会员

Rank: 2

积分
171
字幕币
20
发表于 2019-4-11 21:15 | 显示全部楼层
谢谢分享,好字幕
第三楼字幕网www.disanlou.net致力为大家打造一个优质电影字幕下载交流平台,双语字幕下载、中文字幕下载、电影字幕下载尽在第三楼字幕网
回复 支持 反对

使用道具 举报

0

主题

604

帖子

606

积分

高级会员

Rank: 4

积分
606
字幕币
2
发表于 2019-4-11 23:05 | 显示全部楼层
非常感谢分享
第三楼字幕网www.disanlou.net致力为大家打造一个优质电影字幕下载交流平台,双语字幕下载、中文字幕下载、电影字幕下载尽在第三楼字幕网
回复 支持 反对

使用道具 举报

0

主题

85

帖子

4157

积分

论坛元老

Rank: 8Rank: 8

积分
4157
字幕币
4072
发表于 2019-4-12 00:10 | 显示全部楼层
非常感谢分享字幕
第三楼字幕网www.disanlou.net致力为大家打造一个优质电影字幕下载交流平台,双语字幕下载、中文字幕下载、电影字幕下载尽在第三楼字幕网
回复 支持 反对

使用道具 举报

4

主题

1694

帖子

4145

积分

论坛元老

Rank: 8Rank: 8

积分
4145
字幕币
2451
发表于 2019-4-12 01:24 | 显示全部楼层
不管东西咋样 还是先谢谢了
第三楼字幕网www.disanlou.net致力为大家打造一个优质电影字幕下载交流平台,双语字幕下载、中文字幕下载、电影字幕下载尽在第三楼字幕网
回复 支持 反对

使用道具 举报

6

主题

241

帖子

299

积分

中级会员

Rank: 3Rank: 3

积分
299
字幕币
58
发表于 2019-4-12 09:53 | 显示全部楼层
好棒棒,这么快就出字幕了额,感谢分享
第三楼字幕网www.disanlou.net致力为大家打造一个优质电影字幕下载交流平台,双语字幕下载、中文字幕下载、电影字幕下载尽在第三楼字幕网
回复 支持 反对

使用道具 举报

1

主题

1030

帖子

4254

积分

论坛元老

Rank: 8Rank: 8

积分
4254
字幕币
3224
发表于 2019-4-12 12:55 | 显示全部楼层
支持支持支持支持
第三楼字幕网www.disanlou.net致力为大家打造一个优质电影字幕下载交流平台,双语字幕下载、中文字幕下载、电影字幕下载尽在第三楼字幕网
回复 支持 反对

使用道具 举报

0

主题

273

帖子

441

积分

中级会员

Rank: 3Rank: 3

积分
441
字幕币
168
发表于 2019-4-12 14:41 | 显示全部楼层
多谢楼主分享!
第三楼字幕网www.disanlou.net致力为大家打造一个优质电影字幕下载交流平台,双语字幕下载、中文字幕下载、电影字幕下载尽在第三楼字幕网
回复 支持 反对

使用道具 举报

3

主题

152

帖子

1361

积分

金牌会员

Rank: 6Rank: 6

积分
1361
字幕币
1209
发表于 2019-4-12 15:43 | 显示全部楼层
`````````````````````
第三楼字幕网www.disanlou.net致力为大家打造一个优质电影字幕下载交流平台,双语字幕下载、中文字幕下载、电影字幕下载尽在第三楼字幕网
回复 支持 反对

使用道具 举报

您需要登录后才可以回帖 登录 | 立即注册

本版积分规则

广告招商联系|字幕网站|字幕站|窝部落|字幕下载网站|字幕网  

GMT+8, 2019-4-23 08:52 , Processed in 0.356863 second(s), 32 queries , Gzip On.

Powered by 中文字幕 X3.2

© 2001-2013 字幕下载平台

免责申明:本站是网友交流字幕共享的平台论坛,所有字幕仅作语言学习之用,禁止用于商业用途.本站不对显示的内容承担任何法律责任,如侵犯了您的权益,请联系[email protected]告之删除,谢谢

【提示:本站是字幕翻译交流网站,本站不提供任何盗版资源下载地址,请知悉,谢谢合作】

快速回复 返回顶部 返回列表