第三楼字幕网

查看: 200|回复: 15

[24小时:救赎]24.Redemption.2008.EXTENDED.1080p.WEBRip.DD5.1.x264[中英双语字幕]

[复制链接]

20

主题

198

帖子

1196

积分

金牌会员

Rank: 6Rank: 6

积分
1196
字幕币
998
发表于 2019-3-2 22:33 | 显示全部楼层 |阅读模式
电影海报
24小时:救赎.jpg
影片信息
◎译  名 24小时:救赎/24小时第七季先行篇/24小时反恐电影版/24反恐任务:救赎行动
◎片  名 24: Redemption
◎年  代 2008
◎产  地 美国
◎类  别 剧情/动作/惊悚/战争
◎语  言 英语
◎上映日期 2008-11-23
◎IMDb评分  7.6/10 from 23,959 users
◎IMDb链接  http://www.imdb.com/title/tt0813980/
◎豆瓣评分 7.6/10 from 4,093 users
◎豆瓣链接 https://movie.douban.com/subject/1966050/
◎时光评分 7.4/10 from 242 users
◎时光链接 http://movie.mtime.com/89377/
◎片  长 102分钟
◎导  演 强·卡萨 Jon Cassar
◎主  演 基弗·萨瑟兰 Kiefer Sutherland
      切莉·琼斯 Cherry Jones
      鲍勃·冈顿 Bob Gunton
      科鲁姆·费奥瑞 Colm Feore
      鲍沃斯·布斯 Powers Boothe
      罗伯特·卡莱尔 Robert Carlyle
      强·沃特 Jon Voight
      彼特·麦尼科 Peter MacNicol
      吉尔·贝罗斯 Gil Bellows
      哈基姆·凯-卡西姆 Hakeem Kae-Kazim

内容简介
  这部电视电影是《24小时》第七季的先行版。经历了多次的恐怖袭击,虽然杰克(基弗·萨瑟兰 Kiefer Sutherland 饰)尽心尽力想尽办法的去化解这些恐怖袭击,可是却因为处置所采用的非常手段而被美国的某些政客不容。因此杰克只得离开美国,躲到非洲去避开对自己的指控。可是怎么躲避最终都无法摆脱自己的命运。这一次,由于非洲某国政变,国内叛乱派到处制造恐怖屠杀。这一次威胁到了杰克所在的一所教会学校。面对种族屠杀,杰克挺身而出只身面对全副武装的敌人奋力反抗。为了能给营救的这群孩子一个安全的生活环境,最终杰克不得不带着他们前往美国军队设立的避难所,而自己也因此最终被引渡回国……
截图预览
1.jpg 2.jpg
3.jpg 4.jpg
参数信息
  1. Video
  2. ID                                       : 1
  3. Format                                   : AVC
  4. Format/Info                              : Advanced Video Codec
  5. Format profile                           : [email protected]
  6. Format settings, CABAC                   : Yes
  7. Format settings, ReFrames                : 4 frames
  8. Codec ID                                 : V_MPEG4/ISO/AVC
  9. Duration                                 : 1h 42mn
  10. Bit rate mode                            : Variable
  11. Bit rate                                 : 10.9 Mbps
  12. Maximum bit rate                         : 15.0 Mbps
  13. Width                                    : 1 920 pixels
  14. Height                                   : 1 080 pixels
  15. Display aspect ratio                     : 16:9
  16. Frame rate mode                          : Constant
  17. Frame rate                               : 23.976 (24000/1001) fps
  18. Color space                              : YUV
  19. Chroma subsampling                       : 4:2:0
  20. Bit depth                                : 8 bits
  21. Scan type                                : Progressive
  22. Bits/(Pixel*Frame)                       : 0.220
  23. Stream size                              : 7.81 GiB (94%)
  24. Writing library                          : x264 core 148 r2623 d5b2374
  25. Encoding settings                        : cabac=1 / ref=4 / deblock=1:-1:-1 / analyse=0x3:0x133 / me=umh / subme=9 / psy=1 / psy_rd=1.00:0.15 / mixed_ref=1 / me_range=24 / chroma_me=1 / trellis=2 / 8x8dct=1 / cqm=0 / deadzone=21,11 / fast_pskip=1 / chroma_qp_offset=-3 / threads=34 / lookahead_threads=5 / sliced_threads=0 / nr=150 / decimate=1 / interlaced=0 / bluray_compat=0 / constrained_intra=0 / bframes=8 / b_pyramid=2 / b_adapt=2 / b_bias=0 / direct=3 / weightb=1 / open_gop=0 / weightp=2 / keyint=120 / keyint_min=61 / scenecut=0 / intra_refresh=0 / rc_lookahead=120 / rc=crf / mbtree=1 / crf=18.0 / qcomp=0.60 / qpmin=0 / qpmax=69 / qpstep=4 / vbv_maxrate=15000 / vbv_bufsize=31250 / crf_max=0.0 / nal_hrd=vbr / filler=0 / ip_ratio=1.40 / aq=3:1.00
  26. Language                                 : English
  27. Default                                  : Yes
  28. Forced                                   : No
  29. Color range                              : Limited
  30. Color primaries                          : BT.709
  31. Transfer characteristics                 : BT.709
  32. Matrix coefficients                      : BT.709

  33. Audio
  34. ID                                       : 2
  35. Format                                   : E-AC-3
  36. Format/Info                              : Audio Coding 3
  37. Format settings, Endianness              : Big
  38. Codec ID                                 : A_EAC3
  39. Duration                                 : 1h 42mn
  40. Bit rate mode                            : Constant
  41. Bit rate                                 : 640 Kbps
  42. Channel(s)                               : 6 channels
  43. Channel positions                        : Front: L C R, Side: L R, LFE
  44. Sampling rate                            : 48.0 KHz
  45. Frame rate                               : 187.500 fps (256 spf)
  46. Compression mode                         : Lossy
  47. Stream size                              : 467 MiB (6%)
  48. Language                                 : English
  49. Default                                  : Yes
  50. Forced                                   : No

  51. Text
  52. ID                                       : 3
  53. Format                                   : UTF-8
  54. Codec ID                                 : S_TEXT/UTF8
  55. Codec ID/Info                            : UTF-8 Plain Text
  56. Duration                                 : 1h 35mn
  57. Bit rate                                 : 65 bps
  58. Count of elements                        : 1734
  59. Stream size                              : 45.8 KiB (0%)
  60. Language                                 : English
  61. Default                                  : No
  62. Forced                                   : No

  63. Menu
  64. 00:00:00.000                             : en:Soldiers kidnap and train young boys to fill out their army
  65. 00:04:02.000                             : en:Title Sequence
  66. 00:04:14.000                             : en:Time Frame
  67. 00:04:24.000                             : en:Jack catches Willie going through his bag, Opening Credits
  68. 00:11:28.000                             : en:Hodges offers the rebels troops as well as weapons
  69. 00:15:17.000                             : en:Jack and Carl argue about the subpoena
  70. 00:22:30.000                             : en:Rebel soldiers capture Desmond and the other boys
  71. 00:26:24.000                             : en:Chris calls Roger and the President gets important news
  72. 00:34:24.000                             : en:Carl finds the aftermath of the shooting and Willie wants to go with Jack
  73. 00:34:54.000                             : en:Jack holds off the attackers as long as he can
  74. 00:47:05.000                             : en:The embassy evacuates and Carl calls for help
  75. 00:54:47.000                             : en:Chris tells Roger why he's in so much trouble
  76. 00:58:44.000                             : en:General Juma arrives at c…es to avoid the soldiers
  77. 01:02:49.000                             : en:Noah toasts Allison's adm…ers about his motivation
  78. 01:07:01.000                             : en:Colonel Dubaku's priorities clash with Juma's
  79. 01:08:19.000                             : en:Chris gets an unexpected visitor at home
  80. 01:13:31.000                             : en:Colonel Dubaku finds Jack and the boys
  81. 01:23:37.000                             : en:Roger is concerned that he hasn't heard from Chris
  82. 01:25:37.000                             : en:Jack rushes to get the boys to the embassy
  83. 01:28:50.000                             : en:Jack tries to convince Frank to let the boys into the embassy
  84. 01:33:09.000                             : en:The President-Elect is sworn into office
  85. 01:36:29.000                             : en:End Credits
复制代码
下载地址

游客,如果您要查看本帖隐藏内容请回复



第三楼字幕网www.disanlou.org共享交流平台,字幕音轨仅作学习交流使用,版权归片方所有,禁止用于商业用途
第三楼字幕网www.disanlou.net致力为大家打造一个优质电影字幕下载交流平台,双语字幕下载、中文字幕下载、电影字幕下载尽在第三楼字幕网
回复

使用道具 举报

15

主题

1190

帖子

1731

积分

金牌会员

Rank: 6Rank: 6

积分
1731
字幕币
464
发表于 2019-3-3 00:52 | 显示全部楼层
片子卖相还不错,既然有字幕了,就看看,感谢
第三楼字幕网www.disanlou.net致力为大家打造一个优质电影字幕下载交流平台,双语字幕下载、中文字幕下载、电影字幕下载尽在第三楼字幕网
回复 支持 反对

使用道具 举报

0

主题

257

帖子

5213

积分

至尊永久VIP会员

Rank: 7Rank: 7Rank: 7

积分
5213
字幕币
4956
发表于 2019-3-3 06:48 | 显示全部楼层
很好,谢谢提供资源,支持楼主,期待更好的。。
第三楼字幕网www.disanlou.net致力为大家打造一个优质电影字幕下载交流平台,双语字幕下载、中文字幕下载、电影字幕下载尽在第三楼字幕网
回复 支持 反对

使用道具 举报

0

主题

258

帖子

1627

积分

金牌会员

Rank: 6Rank: 6

积分
1627
字幕币
1369
QQ
发表于 2019-3-3 07:01 | 显示全部楼层
不错的,这个小强厉害的
谢谢啦
第三楼字幕网www.disanlou.net致力为大家打造一个优质电影字幕下载交流平台,双语字幕下载、中文字幕下载、电影字幕下载尽在第三楼字幕网
回复 支持 反对

使用道具 举报

1

主题

352

帖子

2430

积分

金牌会员

Rank: 6Rank: 6

积分
2430
字幕币
2078
发表于 2019-3-3 08:27 | 显示全部楼层
支持楼主 多发布资源
第三楼字幕网www.disanlou.net致力为大家打造一个优质电影字幕下载交流平台,双语字幕下载、中文字幕下载、电影字幕下载尽在第三楼字幕网
回复 支持 反对

使用道具 举报

4

主题

1682

帖子

4133

积分

论坛元老

Rank: 8Rank: 8

积分
4133
字幕币
2451
发表于 2019-3-3 13:42 | 显示全部楼层
not bad one !!!!!!!!!!!!!!!
第三楼字幕网www.disanlou.net致力为大家打造一个优质电影字幕下载交流平台,双语字幕下载、中文字幕下载、电影字幕下载尽在第三楼字幕网
回复

使用道具 举报

0

主题

319

帖子

4876

积分

论坛元老

Rank: 8Rank: 8

积分
4876
字幕币
4557
发表于 2019-3-3 20:58 | 显示全部楼层
感谢分享资源  谢谢
第三楼字幕网www.disanlou.net致力为大家打造一个优质电影字幕下载交流平台,双语字幕下载、中文字幕下载、电影字幕下载尽在第三楼字幕网
回复 支持 反对

使用道具 举报

3

主题

303

帖子

546

积分

高级会员

Rank: 4

积分
546
字幕币
243
发表于 2019-3-3 21:45 | 显示全部楼层
XIEXIELOUZHU
第三楼字幕网www.disanlou.net致力为大家打造一个优质电影字幕下载交流平台,双语字幕下载、中文字幕下载、电影字幕下载尽在第三楼字幕网
回复 支持 反对

使用道具 举报

0

主题

384

帖子

785

积分

高级会员

Rank: 4

积分
785
字幕币
401
发表于 2019-3-4 20:40 | 显示全部楼层
很好的片子,谢谢
第三楼字幕网www.disanlou.net致力为大家打造一个优质电影字幕下载交流平台,双语字幕下载、中文字幕下载、电影字幕下载尽在第三楼字幕网
回复 支持 反对

使用道具 举报

0

主题

430

帖子

1045

积分

金牌会员

Rank: 6Rank: 6

积分
1045
字幕币
615
发表于 2019-3-5 19:49 | 显示全部楼层
52345634534345

4535
54
第三楼字幕网www.disanlou.net致力为大家打造一个优质电影字幕下载交流平台,双语字幕下载、中文字幕下载、电影字幕下载尽在第三楼字幕网
回复 支持 反对

使用道具 举报

您需要登录后才可以回帖 登录 | 立即注册

本版积分规则

广告招商联系|字幕网站|字幕站|窝部落|字幕下载网站|字幕网  

GMT+8, 2019-3-25 10:02 , Processed in 0.240801 second(s), 33 queries , Gzip On.

Powered by 中文字幕 X3.2

© 2001-2013 字幕下载平台

免责申明:本站是网友交流字幕共享的平台论坛,所有字幕仅作语言学习之用,禁止用于商业用途.本站不对显示的内容承担任何法律责任,如侵犯了您的权益,请联系[email protected]告之删除,谢谢

【提示:本站是字幕翻译交流网站,本站不提供任何盗版资源下载地址,请知悉,谢谢合作】

快速回复 返回顶部 返回列表