第三楼字幕网

查看: 563|回复: 15

[中英][飓风抢劫]The.Hurricane.Heist.2018.1080p.BluRay.x264.DTS-HD.MA.7.1-FGT

[复制链接]

20

主题

198

帖子

1196

积分

金牌会员

Rank: 6Rank: 6

积分
1196
字幕币
998
发表于 2019-1-12 11:55 | 显示全部楼层 |阅读模式
本帖最后由 remon 于 2019-1-12 11:56 编辑
电影海报
飓风抢劫.jpg
影片信息
◎译  名 飓风抢劫/玩命飓风(台)/十级风劫(港)/夺金风暴/五级飓风/Category 5
◎片  名 The Hurricane Heist
◎年  代 2018
◎国  家 美国
◎类  别 动作/犯罪/灾难
◎语  言 英语
◎上映日期 2018-03-09(美国)
◎IMDB评分 4.9/10 from 5,596 users
◎IMDB链接 https://www.imdb.com/title/tt5360952
◎豆瓣评分 5.9/10 from 10,156 users
◎豆瓣链接 https://movie.douban.com/subject/26793385/
◎时光评分 6.1/10 from 264 users
◎时光链接 https://movie.douban.com/subject/26793385/
◎片  长 103分钟
◎导  演 罗伯·科恩
◎主  演 托比·凯贝尔 Toby Kebbell
       玛姬·格蕾斯 Maggie Grace
       瑞恩·柯万腾 Ryan Kwanten
       拉尔夫·尹爱森 Ralph Ineson
       梅丽莎·博洛纳 Melissa Bolona
       本·克劳斯 Ben Cross
       杰米·安德鲁·卡特勒 Jamie Andrew Cutler
       克里斯蒂安·孔特雷拉斯 Christian Contreras
       艾德·伯奇 Ed Birch
       埃里克·罗德尔 Erik Rondell
       帕特里克·麦考利 Patrick McAuley
       莱昂纳多·狄更斯 Leonardo Dickens
       娜塔莎·卡拉姆 Natacha Karam
       斯图尔特·麦克奎里 Stuart McQuarrie

内容简介
  影片讲述财务部女监察探员(格蕾斯饰)负责押运一批6亿美元残旧货币到碎钞厂处理,然而当地罕见的飓风灾难即将来临,一群全副武装的盗贼想在居民全部疏散后“乘风打劫”,而当飓风达到致命的5级之后,所有精心计划都被打乱,他们发现需要一个金库密码,而这个密码只有女监察探员知道,她和所被劫持人质的生命面临威胁。
截图预览
1.jpg 2.jpg
3.jpg 4.jpg
参数信息
  1. General
  2. Unique ID                      : 314407245495028198498881541453148452754 (0xEC88A204A0C7937D4832954535F9F792)
  3. Complete name                  : The.Hurricane.Heist.2018.1080p.BluRay.x264.DTS-HD.MA.7.1-FGT.mkv
  4. Format                         : Matroska
  5. Format version                 : Version 4
  6. File size                      : 10.7 GiB
  7. Duration                       : 1 h 43 min
  8. Overall bit rate mode          : Variable
  9. Overall bit rate               : 14.8 Mb/s
  10. Movie name                     : The.Hurricane.Heist.2018.1080p.BluRay.x264.DTS-HD.MA.7.1-FGT
  11. Encoded date                   : UTC 2018-05-29 06:51:40
  12. Writing application            : mkvmerge v22.0.0 ('At The End Of The World') 64-bit
  13. Writing library                : libebml v1.3.5 + libmatroska v1.4.8
  14. Cover                          : Yes
  15. Attachments                    : small_cover.jpg / small_cover_land.jpg / cover.jpg / cover_land.jpg

  16. Video
  17. ID                             : 1
  18. Format                         : AVC
  19. Format/Info                    : Advanced Video Codec
  20. Format profile                 : [email][email protected][/email]
  21. Format settings                : CABAC / 5 Ref Frames
  22. Format settings, CABAC         : Yes
  23. Format settings, ReFrames      : 5 frames
  24. Codec ID                       : V_MPEG4/ISO/AVC
  25. Duration                       : 1 h 43 min
  26. Bit rate                       : 9 986 kb/s
  27. Width                          : 1 920 pixels
  28. Height                         : 808 pixels
  29. Display aspect ratio           : 2.40:1
  30. Frame rate mode                : Constant
  31. Frame rate                     : 23.976 FPS
  32. Color space                    : YUV
  33. Chroma subsampling             : 4:2:0
  34. Bit depth                      : 8 bits
  35. Scan type                      : Progressive
  36. Bits/(Pixel*Frame)             : 0.268
  37. Stream size                    : 7.18 GiB (67%)
  38. Title                          : The.Hurricane.Heist.2018.1080p.BluRay.x264.DTS-HD.MA.7.1-FGT
  39. Writing library                : x264 core 155 r2901 7d0ff22
  40. Encoding settings              : cabac=1 / ref=5 / deblock=1:0:0 / analyse=0x3:0x133 / me=umh / subme=7 / psy=1 / psy_rd=1.00:0.00 / mixed_ref=1 / me_range=16 / chroma_me=1 / trellis=1 / 8x8dct=1 / cqm=0 / deadzone=21,11 / fast_pskip=0 / chroma_qp_offset=-2 / threads=25 / lookahead_threads=4 / sliced_threads=0 / nr=0 / decimate=1 / interlaced=0 / bluray_compat=0 / constrained_intra=0 / bframes=3 / b_pyramid=2 / b_adapt=1 / b_bias=0 / direct=1 / weightb=1 / open_gop=0 / weightp=2 / keyint=250 / keyint_min=23 / scenecut=40 / intra_refresh=0 / rc_lookahead=40 / rc=2pass / mbtree=1 / bitrate=9986 / ratetol=1.0 / qcomp=0.60 / qpmin=0 / qpmax=69 / qpstep=4 / cplxblur=20.0 / qblur=0.5 / ip_ratio=1.40 / aq=1:1.00
  41. Language                       : English
  42. Default                        : Yes
  43. Forced                         : No

  44. Audio
  45. ID                             : 2
  46. Format                         : DTS XLL
  47. Format/Info                    : Digital Theater Systems
  48. Commercial name                : DTS-HD Master Audio
  49. Codec ID                       : A_DTS
  50. Duration                       : 1 h 43 min
  51. Bit rate mode                  : Variable
  52. Bit rate                       : 4 836 kb/s
  53. Channel(s)                     : 8 channels
  54. Channel layout                 : C L R LFE Lb Rb Lss Rss
  55. Sampling rate                  : 48.0 kHz
  56. Frame rate                     : 93.750 FPS (512 SPF)
  57. Bit depth                      : 24 bits
  58. Compression mode               : Lossless
  59. Stream size                    : 3.48 GiB (33%)
  60. Title                          : The.Hurricane.Heist.2018.1080p.BluRay.x264.DTS-HD.MA.7.1-FGT
  61. Language                       : English
  62. Default                        : Yes
  63. Forced                         : No

  64. Text #1
  65. ID                             : 3
  66. Format                         : UTF-8
  67. Codec ID                       : S_TEXT/UTF8
  68. Codec ID/Info                  : UTF-8 Plain Text
  69. Duration                       : 1 h 32 min
  70. Bit rate                       : 53 b/s
  71. Count of elements              : 1121
  72. Stream size                    : 36.6 KiB (0%)
  73. Title                          : English-SRT
  74. Language                       : English
  75. Default                        : Yes
  76. Forced                         : No

  77. Text #2
  78. ID                             : 4
  79. Format                         : PGS
  80. Muxing mode                    : zlib
  81. Codec ID                       : S_HDMV/PGS
  82. Codec ID/Info                  : Picture based subtitle format used on BDs/HD-DVDs
  83. Duration                       : 1 h 42 min
  84. Bit rate                       : 36.9 kb/s
  85. Count of elements              : 2496
  86. Stream size                    : 27.0 MiB (0%)
  87. Title                          : English-PGS
  88. Language                       : English
  89. Default                        : No
  90. Forced                         : No

  91. Text #3
  92. ID                             : 5
  93. Format                         : PGS
  94. Muxing mode                    : zlib
  95. Codec ID                       : S_HDMV/PGS
  96. Codec ID/Info                  : Picture based subtitle format used on BDs/HD-DVDs
  97. Duration                       : 1 h 32 min
  98. Bit rate                       : 35.9 kb/s
  99. Count of elements              : 2461
  100. Stream size                    : 23.8 MiB (0%)
  101. Title                          : Spanish-PGS
  102. Language                       : Spanish
  103. Default                        : No
  104. Forced                         : No

  105. Menu
  106. 00:00:00.000                   : en:00:00:00.000
  107. 00:05:41.258                   : en:00:05:41.258
  108. 00:13:15.253                   : en:00:13:15.253
  109. 00:20:49.456                   : en:00:20:49.456
  110. 00:25:48.046                   : en:00:25:48.046
  111. 00:30:08.974                   : en:00:30:08.974
  112. 00:35:00.890                   : en:00:35:00.890
  113. 00:40:40.813                   : en:00:40:40.813
  114. 00:45:48.162                   : en:00:45:48.162
  115. 00:52:34.359                   : en:00:52:34.359
  116. 01:00:22.244                   : en:01:00:22.244
  117. 01:06:49.881                   : en:01:06:49.881
  118. 01:11:02.341                   : en:01:11:02.341
  119. 01:17:43.951                   : en:01:17:43.951
  120. 01:25:06.351                   : en:01:25:06.351
  121. 01:32:38.595                   : en:01:32:38.595
复制代码
下载地址

游客,如果您要查看本帖隐藏内容请回复



第三楼字幕网www.disanlou.org共享交流平台,字幕音轨仅作学习交流使用,版权归片方所有,禁止用于商业用途
第三楼字幕网www.disanlou.net致力为大家打造一个优质电影字幕下载交流平台,双语字幕下载、中文字幕下载、电影字幕下载尽在第三楼字幕网
回复

使用道具 举报

4

主题

1682

帖子

4133

积分

论坛元老

Rank: 8Rank: 8

积分
4133
字幕币
2451
发表于 2019-1-12 13:07 | 显示全部楼层
真的假的,不过还是先谢了
第三楼字幕网www.disanlou.net致力为大家打造一个优质电影字幕下载交流平台,双语字幕下载、中文字幕下载、电影字幕下载尽在第三楼字幕网
回复 支持 反对

使用道具 举报

0

主题

258

帖子

1627

积分

金牌会员

Rank: 6Rank: 6

积分
1627
字幕币
1369
QQ
发表于 2019-1-12 13:33 | 显示全部楼层
收藏收藏
谢谢啦
第三楼字幕网www.disanlou.net致力为大家打造一个优质电影字幕下载交流平台,双语字幕下载、中文字幕下载、电影字幕下载尽在第三楼字幕网
回复 支持 反对

使用道具 举报

15

主题

1190

帖子

1731

积分

金牌会员

Rank: 6Rank: 6

积分
1731
字幕币
464
发表于 2019-1-12 19:42 | 显示全部楼层
太感谢了,好电影
第三楼字幕网www.disanlou.net致力为大家打造一个优质电影字幕下载交流平台,双语字幕下载、中文字幕下载、电影字幕下载尽在第三楼字幕网
回复 支持 反对

使用道具 举报

0

主题

519

帖子

702

积分

高级会员

Rank: 4

积分
702
字幕币
183
发表于 2019-1-12 21:04 | 显示全部楼层
先谢楼主分享!
第三楼字幕网www.disanlou.net致力为大家打造一个优质电影字幕下载交流平台,双语字幕下载、中文字幕下载、电影字幕下载尽在第三楼字幕网
回复 支持 反对

使用道具 举报

4

主题

206

帖子

816

积分

高级会员

Rank: 4

积分
816
字幕币
610
发表于 2019-1-12 22:45 | 显示全部楼层
谢谢楼主分享了  
第三楼字幕网www.disanlou.net致力为大家打造一个优质电影字幕下载交流平台,双语字幕下载、中文字幕下载、电影字幕下载尽在第三楼字幕网
回复 支持 反对

使用道具 举报

2

主题

345

帖子

1712

积分

金牌会员

Rank: 6Rank: 6

积分
1712
字幕币
1367
发表于 2019-1-12 23:00 | 显示全部楼层
谢谢分享字幕~~~~~~~~~~~~~~~~~~~
第三楼字幕网www.disanlou.net致力为大家打造一个优质电影字幕下载交流平台,双语字幕下载、中文字幕下载、电影字幕下载尽在第三楼字幕网
回复 支持 反对

使用道具 举报

63

主题

853

帖子

7851

积分

论坛元老

Rank: 8Rank: 8

积分
7851
字幕币
6959
发表于 2019-1-13 08:35 | 显示全部楼层
谢谢楼主分享
第三楼字幕网www.disanlou.net致力为大家打造一个优质电影字幕下载交流平台,双语字幕下载、中文字幕下载、电影字幕下载尽在第三楼字幕网
回复 支持 反对

使用道具 举报

1

主题

1013

帖子

4157

积分

论坛元老

Rank: 8Rank: 8

积分
4157
字幕币
3144
发表于 2019-1-14 08:21 | 显示全部楼层
支持支持支持支持
第三楼字幕网www.disanlou.net致力为大家打造一个优质电影字幕下载交流平台,双语字幕下载、中文字幕下载、电影字幕下载尽在第三楼字幕网
回复 支持 反对

使用道具 举报

1

主题

634

帖子

4496

积分

论坛元老

Rank: 8Rank: 8

积分
4496
字幕币
3862
发表于 2019-1-14 08:23 | 显示全部楼层
谢谢楼主共享
第三楼字幕网www.disanlou.net致力为大家打造一个优质电影字幕下载交流平台,双语字幕下载、中文字幕下载、电影字幕下载尽在第三楼字幕网
回复 支持 反对

使用道具 举报

您需要登录后才可以回帖 登录 | 立即注册

本版积分规则

广告招商联系|字幕网站|字幕站|窝部落|字幕下载网站|字幕网  

GMT+8, 2019-3-25 09:14 , Processed in 0.277297 second(s), 33 queries , Gzip On.

Powered by 中文字幕 X3.2

© 2001-2013 字幕下载平台

免责申明:本站是网友交流字幕共享的平台论坛,所有字幕仅作语言学习之用,禁止用于商业用途.本站不对显示的内容承担任何法律责任,如侵犯了您的权益,请联系[email protected]告之删除,谢谢

【提示:本站是字幕翻译交流网站,本站不提供任何盗版资源下载地址,请知悉,谢谢合作】

快速回复 返回顶部 返回列表